设为首页收藏本站 本站已运行

66看看

 找回密码
 立即注册
搜索
热搜: 活动 交友 discuz
查看: 216|回复: 2

[BT下载]死亡飞车2050 Death.Race.2050.2017.720p.BluRay.x264.DTS-MT 5.5GB

[复制链接]

该用户从未签到

2104

主题

2135

帖子

6376

乐乐币

超级版主

Rank: 8Rank: 8

积分
6539
发表于 2017-1-8 21:14:01 | 显示全部楼层 |阅读模式
6ab33b603318955f5fe6cadbab16ca35.jpg
  ◎译  名 逝世亡飞车2050
  ◎片  名 Death Race 2050
  ◎年  代 2016
  ◎国  家 美国
  ◎类  别 喜剧/动作/科幻
  ◎语  言 英语
  ◎上映日期 January 17, 2017
  ◎IMDb评分  N/A
  ◎导  演 G.J. Echternkamp
  ◎主  演 马努·贝内特 Manu Bennett
        马尔科姆·麦克道威尔 Malcolm McDowell
        Marci Miller
  

  ◎简  介
  

   2050年,地球已经变得生齿过多|匡助掌握生齿政府成长平易近族。逝世亡比赛。每年全国各地竞争对手的比赛得分与他们的车辆杀人。
  

  

  Video
ID                                       : 1
Format                                   : AVC
Format/Info                              : Advanced Video Codec
Format profile                           : 66kankan
Format settings, CABAC                   : Yes
Format settings, ReFrames                : 9 frames
Codec ID                                 : V_MPEG4/ISO/AVC
Duration                                 : 1h 32mn
Bit rate                                 : 6 995 Kbps
Width                                    : 1 280 pixels
Height                                   : 720 pixels
Display aspect ratio                     : 16:9
Frame rate mode                          : Constant
Frame rate                               : 23.976 (24000/1001) fps
Color space                              : YUV
Chroma subsampling                       : 4:2:0
Bit depth                                : 8 bits
Scan type                                : Progressive
Bits/(Pixel*Frame)                       : 0.317
Stream size                              : 4.53 GiB (82%)
Default                                  : Yes
Forced                                   : No

Audio
ID                                       : 2
Format                                   : DTS
Format/Info                              : Digital Theater Systems
Mode                                     : 16
Format settings, Endianness              : Big
Codec ID                                 : A_DTS
Duration                                 : 1h 32mn
Bit rate mode                            : Constant
Bit rate                                 : 1 509 Kbps
Channel(s)                               : 6 channels
Channel positions                        : Front: L C R, Side: L R, LFE
Sampling rate                            : 48.0 KHz
Frame rate                               : 93.750 fps (512 spf)
Bit depth                                : 24 bits
Compression mode                         : Lossy
Stream size                              : 1 001 MiB (18%)
Default                                  : Yes
Forced                                   : No

  

  
9f0c1649d817a36ad30df6ed7af3e7b0.jpg

bb99cbebfe8f6a74602e4ae6dc0138f2.jpg


0f2e6703e3ab95fb852b958da0e31cd5.jpg

fd52b477e5e413ba009e781a6ada9cf7.jpg


c18599d0cac74a0dcd5e907c784ab01e.jpg

02050419625ca510e9da8e86fe19f78b.jpg

                        
     
                     1 个附件               
                              
Death.Race.2050.2017.720p.BluRay.x264.DTS-MT66kankan.com[66看看].torrent (55.68 KB, 下载次数: 105)
回复

使用道具 举报

  • TA的每日心情
    奋斗
    11 小时前
  • 签到天数: 54 天

    [LV.5]常住居民I

    0

    主题

    153

    帖子

    415

    乐乐币

    中级会员

    Rank: 3Rank: 3

    积分
    414
    发表于 2017-1-9 10:47:25 | 显示全部楼层
    看帖要回帖是一种美德
    回复 支持 反对

    使用道具 举报

  • TA的每日心情
    难过
    8 小时前
  • 签到天数: 77 天

    [LV.6]常住居民II

    0

    主题

    3689

    帖子

    2286

    乐乐币

    论坛元老

    Rank: 8Rank: 8

    积分
    7532
    发表于 2017-1-9 13:42:13 | 显示全部楼层
    这个帖子不错,人人快来顶起来!
    回复 支持 反对

    使用道具 举报

    您需要登录后才可以回帖 登录 | 立即注册

    本版积分规则

    QQ|Archiver|手机版|小黑屋|66看看  |网站地图
    本网站所有资源来自网络,仅供学习和交流,如无意中侵犯了您的权益,请发邮件至 kankan66@foxmail.com,立即清除相关链接.

    GMT+8, 2017-2-19 19:47 , Processed in 0.106060 second(s), 30 queries .

    Powered by Discuz! X3.2

    © 2001-2013 Comsenz Inc.

    快速回复 返回顶部 返回列表